#TITLE:The Game Of Love;
#SUBTITLE:;
#ARTIST:艾薇儿(Avril Lavigne);
#TITLETRANSLIT:;
#SUBTITLETRANSLIT:;
#ARTISTTRANSLIT:;
#CREDIT:;
#BANNER:The Game Of Love-logo.jpg;
#BACKGROUND:The Game Of Love.jpg;
#LYRICSPATH:;
#CDTITLE:Lan.png;
#MUSIC:The Game Of Love.mp3;
#OFFSET:-0.020;
#SAMPLESTART:100.000;
#SAMPLELENGTH:12.000;
#SELECTABLE:YES;
#BPMS:0.000=119.800;
#STOPS:;
#BGCHANGES:;
// cache tags:
#FIRSTBEAT:12.000;
#LASTBEAT:369.500;
#SONGFILENAME:Songs/SDO/The Game Of Love/The Game Of Love.sm;
#HASMUSIC:1;
#HASBANNER:1;
#MUSICLENGTH:190.136;
// end cache tags

//---------------dance-single - sky----------------
#NOTES:
     dance-single:
     sky:
     Hard:
     9:
     0.651,1.000,0.568,0.079,0.394,743.000,108.000,15.000,0.000,11.000:

0000
0000
0000
0000
,
0000
0000
0000
0000
,
0000
0000
0000
0000
,
0100
0000
0010
0000
0100
0010
0001
0000
,
1000
1000
0010
0100
1000
0100
0001
0000
,
0100
0000
0010
0000
0100
0010
0001
0000
,
1000
1000
0010
0100
1000
0100
0001
0000
,
0100
0000
0001
0001
1000
0100
0001
0001
,
0100
0000
0001
0001
1000
0100
0001
0001
,
0100
0000
0001
0001
1000
0100
0001
0001
,
0010
0010
0010
0010
0010
0010
0110
0010
,
1001
0000
0100
0100
0010
0010
1010
0000
,
1010
1000
0100
0100
0010
0010
0101
1000
,
0101
0000
0010
0010
0100
0100
1010
0000
,
0101
0000
0010
0100
0010
0010
0101
1000
,
1001
0000
0100
0100
0010
0010
1010
0000
,
1010
1000
0100
0100
0010
0010
0101
1000
,
1001
0000
0010
0001
0010
0010
1010
0100
,
0001
0000
0100
0010
0001
0000
0100
0000
1100
0000
0110
0000
0011
0000
0000
0000
,
2001
0000
0010
0010
0100
0100
0010
0001
,
3010
0001
0010
0100
1000
1000
0101
0010
,
1001
0000
0100
1000
0010
0010
0101
0010
,
0101
0000
0010
0000
0100
0000
1000
0000
0010
0000
0100
0000
0001
0010
0100
0000
,
2001
0000
0010
0010
0100
0100
0010
0001
,
3010
0000
0001
0000
0010
0000
0100
0000
1000
0100
0010
0000
0100
0000
0010
0000
,
1001
0000
0100
1000
0010
0010
0101
0000
,
1001
1001
1001
1001
1001
1001
1001
1001
,
0101
0000
0010
0000
0100
0000
0010
0000
1010
0000
0100
0000
0001
0010
0100
1000
,
0001
0000
0010
0000
0100
0000
0010
0000
0001
0000
0100
0000
0010
0000
0100
0100
,
0001
1000
0100
0001
0100
1000
0100
0001
,
1010
0000
0100
0000
0010
0010
0000
0000
0100
0000
0100
0010
1000
0100
0010
0001
,
1100
0000
0010
0000
0100
0000
0010
0000
1000
0000
0010
0100
1000
0100
0010
0001
,
1000
0000
0010
0000
0100
0000
0001
0000
0100
0000
0010
0100
1000
0100
0010
0001
,
1000
0010
0100
0001
1010
0010
0000
1010
,
1001
0000
0010
0000
1001
0000
0010
0000
1001
0000
0100
0000
0010
0100
0010
0000
,
1001
0000
0100
0000
0010
0000
0001
0000
0010
0000
0010
0000
0100
0010
1000
0100
,
0010
0100
0001
0010
0100
1000
0101
0010
,
1001
0000
0010
0000
0100
0000
0010
0010
1000
0100
0010
0000
0001
0000
0010
0000
,
1000
0100
0010
0000
0101
0000
0010
0000
1010
0000
0100
0000
0010
0000
0001
0000
,
0101
0010
1000
2000
0000
0000
0010
0000
,
3101
0010
1000
2000
0000
0000
0010
0000
,
3101
0010
1000
2000
0000
0000
0010
0000
,
3101
0000
0010
0000
0100
0000
1000
0000
0001
0010
0001
0000
1000
0100
1000
0000
,
0101
0010
0010
2002
0000
0000
0010
0000
,
3113
0100
0100
2002
0000
0000
0010
0000
,
3113
0100
0100
2002
0000
0010
0010
0000
,
3113
0000
0110
0000
0110
0000
0110
0000
1100
1000
1010
1000
0001
0001
0011
0001
,
1000
0001
0100
0010
1000
0001
0100
0010
1000
0001
0100
0010
1000
0001
0100
0010
0100
0001
1000
0010
0100
0001
0000
0000
,
0001
0100
0100
0000
0010
0000
1000
0000
0001
0010
0000
0000
0100
0000
0000
0000
,
1000
0000
0000
0000
0000
0000
0100
0010
,
1000
0000
0100
0000
0001
0000
0000
0000
0001
0100
0010
1000
0001
0010
1000
0000
,
0000
0000
0010
0010
0100
0000
0001
0000
1000
0000
0010
0000
0000
0000
0000
0000
,
0001
0010
1000
0001
0010
1000
0001
0010
1000
0000
0000
0000
0100
0010
0100
0010
,
1000
0000
0000
0100
0000
0000
0001
0000
0000
1000
0000
0000
0100
0000
0000
0001
0000
0000
1000
0000
0000
0100
0000
0000
0001
0000
0010
0000
1000
0000
0100
0000
0010
0000
1000
0000
0001
0000
0100
0000
1000
0000
0010
0000
0001
0000
1000
0000
,
0020
0000
0000
0000
0000
1030
0000
1000
,
1000
0000
0000
0000
0000
0000
0001
0000
0000
0000
0000
0000
0101
1000
0010
0100
0010
1000
0101
0010
0100
1001
0010
0100
,
0000
0000
0100
0010
1000
0100
0001
0010
1000
0000
0000
0000
0010
1000
0010
1000
,
0001
0100
0000
0000
1000
0000
0010
0000
0000
0000
0000
0000
1000
0000
0010
0000
,
0000
0000
0000
1000
0100
0000
1000
0010
0001
1000
0100
0001
0000
0000
0000
0000
,
0000
0010
1000
1000
0001
0010
0100
1000
,
0100
0001
0100
0001
0010
1000
0010
0000
0010
0000
1000
0000
0100
0000
0001
0000
,
0000
0000
0000
0000
0001
0000
0000
0010
1000
0000
1000
0000
0000
0000
0100
0000
,
0000
0000
1000
0010
0001
0100
0001
0100
1000
0010
0000
0000
0000
0000
0000
0000
,
1001
0100
0010
0100
1000
1000
1000
1010
,
1001
0010
0100
0010
0001
0001
0001
0101
,
1000
0010
0100
0001
1000
0010
0100
0001
,
0011
0110
1100
0011
0110
1100
0011
0110
,
1010
0100
1010
0100
1000
1000
1000
1001
,
0101
0010
0101
0010
0001
0001
0001
1001
,
0100
0010
0100
0010
0100
0010
0100
0000
,
0101
1010
0100
0010
1000
0100
0010
0001
,
1001
0000
1000
0100
0000
1000
0100
0000
0002
0000
0010
0000
0100
0000
1000
0000
,
1003
0000
0001
0010
0000
0001
0010
0000
2000
0000
0001
0000
0010
0000
0100
0000
,
3001
0000
1000
0100
0000
1000
0100
0000
0002
0000
1000
0000
0100
0000
0010
0000
,
1013
0100
0010
0100
1001
0100
0010
0001
,
0101
0010
0100
0010
1010
0100
0010
0100
,
1001
0010
0100
1000
0101
0010
0100
0010
,
1001
0000
1000
0100
0001
0010
0001
0010
1000
0100
0001
0010
1000
0100
0001
0000
,
1010
0000
1100
0000
1001
0000
1001
0000
1001
0000
1001
0110
1001
0110
1001
0110
,
1001
0000
0010
0100
1000
0001
0010
0000
1000
0010
0100
1000
0001
0010
0100
1000
,
0010
0000
1000
0100
0001
0010
0100
1000
0010
1000
0010
0100
0001
0100
0001
0001
,
0100
0010
0000
0000
0000
0000
0000
0000
,
0000
0000
0000
0000
0000
0000
0100
0000
1000
0010
0001
0000
1000
0010
1000
0000
,
0000
0000
0000
0000
0010
0100
0001
0000
,
0000
0000
0000
0000
1000
0100
0010
0001
1000
0000
0010
0000
0100
0010
0100
1000
,
0001
0000
0000
0000
0000
0100
0100
0100
,
0001
0100
0000
0000
0001
0000
0010
0010
,
0100
0000
0000
0000
0000
0000
0000
0000
0000
0000
0000
0000
1000
0000
0010
0000
1000
0000
0000
0000
0100
0000
0001
0000
0100
0000
0000
0000
0000
0000
0000
0000
0000
0010
0000
0000
0100
0000
0000
0001
0000
0000
0010
0000
0000
0100
0000
0000
,
1000
0100
0001
0000
0010
1000
0000
0000
0000
0000
0000
0000
0100
0001
0100
0000
,
1000
0100
0001
1000
0100
0001
1000
0100
0001
1000
0100
0001
1000
0010
0000
0000
,
0000
0000
0010
0000
0000
0010
0000
0000
0010
0000
0000
0000
1000
0010
0001
0100
,
1000
0001
0100
0000
0000
0000
0000
0000
0000
0000
0000
0000
0010
0000
0100
0000
,
1000
0100
0010
0001
1000
0010
1000
0000
0000
0000
0000
0000
0000
0000
0000
0000
;
